Гонка века | Better Late Than Never | Snowfall (31)
 


 

Filecrypt zeigt vereinzelt Files als "n/a". Die Downloads sind trotzdem komplett.

DNS SERVER AENDERNum der staatlichen Zensur zu umgehen. Sollten wir von eurem Provider geseprrt werden, nutzt den TOR BROWSER oder ändert euren DNS SERVER.

Filmwünsche können bei uns im Forum abgegeben werden

Wir Speichern Nicht




 
 
 
Top Releases
Dunkirk.2017.IMAX.German.DTS...
Summer.Of.84.GERMAN.2018.DL....
Summer.Of.84.GERMAN.2018.DL....
Summer.of.84.2018.German.AC3...
Burning.2.On.Ice.2016.GERMAN...
Abgang.mit.Stil.2017.German....
Burning.2.On.Ice.2016.GERMAN...
Burning.2.On.Ice.2016.GERMAN...
Burning.2.On.Ice.2016.GERMAN...
Constantine.City.of.Demons.2...

Cinedubs
Searching.2018.German.AC3MD....
Searching.2018.German.AC3MD....
211.Cops.Under.Fire.2018.Ger...
211.Cops.Under.Fire.2018.Ger...
The.Watcher.Willkommen.im.Mo...
The.Watcher.Willkommen.im.Mo...
MEG.Biss.bald.2018.German.AC...
MEG.Biss.bald.2018.German.AC...
Mamma.Mia.2.Here.We.Go.Again...
Mamma.Mia.2.Here.We.Go.Again...

Neuerscheinungen 2017-18
Skyscraper.2018.3D.HSBS.Germ...
Fuenf.Freunde.und.das.Tal.de...
Death.Race.4.Beyond.Anarchy....
Death.Race.4.Beyond.Anarchy....
Super.Heroes.Aquaman.Rage.of...
Sick.for.Toys.2018.German.DL...
Presence.Es.ist.hier.2015.MU...
Gods.of.Egypt.2016.German.AC...
Haensel.und.Gretel.Hexenjaeg...
Nach.einer.wahren.Geschichte...

XXX
EvilAngel.Anal.Slut.Diaries....
Yonitale.18.10.05.Christin.Y...
TrueAnal.18.09.30.Ana.Foxxx....
Throated.18.10.05.Eliza.Ibar...
Yonitale.18.10.03.Katya.Clov...
WankItNow.17.11.20.Ruby.Summ...
ThisGirlSucks.18.10.03.Augus...
WankItNow.18.09.30.Georgie.L...
WankItNow.18.10.02.Roxy.R.I....
WildOnCam.18.10.01.Kate.Kenn...
WebYoung.18.10.05.Adria.Rae....
WcpClub.18.10.05.Sexfeene.Ro...
Yanks.18.10.04.Penny.Lay.And...
WankItNow.18.10.01.Jamie.T.J...
Tiny4K.18.10.04.Addee.Kate.P...
WetAndPissy.18.10.02.Emma.De...
WhiteGhetto.18.10.02.Raylene...
TrickyOldTeacher.18.10.04.Ma...
X-Art.18.09.30.Kendall.Rae.A...
WickedPictures.Squirt.XXX.72...

3D
Skyscraper.2018.German.DTSD....
Jurassic.World.Das.gefallene...
Jurassic.World.Das.gefallene...
Best.of.3D.vol.10.-.12.GERMA...
Die.Biene.Maja.2.Die.Honigsp...
Sharknado.6.The.Last.One.3D....
Solo.A.Star.Wars.Story.3D.20...
Solo.A.Star.Wars.Story.3D.20...
Die.Biene.Maja.2.Die.Honigsp...
Avengers.Infinity.War.3D.201...
Avengers.Infinity.War.3D.201...
Rampage.Big.Meets.Bigger.3D....
Rampage.Big.Meets.Bigger.3D....
Rampage.Big.Meets.Bigger.3D....
Winter.Games.3D.2013.DUAL.CO...

Old_Stuff
Britney.Spears.Live.The.Femm...
Buffy.The.Vampire.Slayer.199...
IMAX.Ride.Around.The.World.2...
Schimanski.-.Duisburg.Ruhror...
Akte.X.S02.German.DTS.DL.108...
How.I.Met.Your.Mother.S02.Ge...
Akte.X.S01.German.DTS.DL.108...
Den.Himmel.gibts.echt.DL.108...
Vikings.S02.German.DL.1080p....
Be.Kind.Rewind.Abgedreht.200...
Be.Kind.Rewind.Abgedreht.200...
Dracula.The.Dark.Lord.2012.G...
21.2008.German.DL.1080p.BluR...
Achtung.fertig.WK.Swissgerma...
The.Ouija.Exorcism.2015.MULT...

Filme
The.Eye.Infinity.2005.German...
The.Eye.2008.German.DTS.1080...
The.Expendables.EXTENDED.DC....
The.Expendables.2.Uncut.Germ...
The.Face.of.Love.2014.German...
Bad.Samaritan.Im.Visier.des....
Jupiter.Ascending.2015.OPEN....
Happy.Death.Day.2017.OPEN.MA...
Zombieland.2009.OPEN.MATTE.G...
The.Executor.Der.Vollstrecke...
The.Exorcism.Tapes.Geheiligt...
Killing.Bono.2011.German.DL....
Zombieland.2009.German.DTS.D...
Ab.Tak.Chhappan.2004.German....
Sie.waren.Sechs.1941.German....
Amerikanisches.Idyll.2016.Ge...
Volt.2016.German.DTS.1080p.B...
The.End.of.the.Tour.2015.GER...
The.End.Of.The.World.2010.Ge...
The.English.Teacher.Eine.Lek...
Burning.2.On.Ice.2016.German...
Kung.Fu.Monk.2010.German.DL....
Seidenstruempfe.1957.German....
The.East.2013.German.AC3D.DL...

 
 
The.Eye.Infinity.2005.German.1080p.HDTV.x264-NORETAiL

Jahr: 2005
Genre: Horror, Komödie
Sprache: Deutsch AC3
Laufzeit: 1h 40mn
Bitrate: 3 201 Kbps
Format: MKV
Größe: 2.25 GiB
Release:

Beschreibung:

Vier junge Leute aus Hongkong besuchen ihren Freund in Thailand und erzählen sich zur Feier des ersten Abends Gruselgeschichten. Einer von ihnen weiß von zehn Möglichkeiten, Geister herauf zu beschwören. Sofort werden die der Reihe nach ausprobiert. Manche Versuche verlaufen und enden komisch, andere schon weniger. Selbst, als einer aus ihrer Mitte auf Nimmerwiedersehen verschwindet und der Spuk sie im Alltag zu überrumpeln beginnt, hindert das die anderen nicht, mit ihren Versuchen fortzufahren.



Complete name                            : the.eye.infinity.2005.german.1080p.hdtv.x264-noretail.mkv
Format                                   : Matroska
Format version                           : Version 2
File size                                : 2.25 GiB
Duration                                 : 1h 40mn
Overall bit rate                         : 3 201 Kbps
Writing application                      : mkvmerge v6.6.0 ('The Edge Of The In Between') built on Dec 1 2013 17:55:00
Writing library                          : libebml v1.3.0 + libmatroska v1.4.1

Video
ID                                       : 1
Format                                   : AVC
Format/Info                              : Advanced Video Codec
Format profile                           : [email protected]
Format settings, CABAC                   : Yes
Format settings, ReFrames                : 5 frames
Codec ID                                 : V_MPEG4/ISO/AVC
Duration                                 : 1h 40mn
Bit rate                                 : 2 753 Kbps
Width                                    : 1 920 pixels
Height                                   : 720 pixels
Display aspect ratio                     : 2.667
Frame rate mode                          : Constant
Frame rate                               : 25.000 fps
Color space                              : YUV
Chroma subsampling                       : 4:2:0
Bit depth                                : 8 bits
Scan type                                : Progressive
Bits/(Pixel*Frame)                       : 0.080
Stream size                              : 1.93 GiB (86%)
Writing library                          : x264 core 152 r2851 ba24899
Encoding settings                        : cabac=1 / ref=5 / deblock=1:-3:-3 / analyse=0x3:0x133 / me=umh / subme=8 / psy=1 / psy_rd=1.00:0.15 / mixed_ref=1 / me_range=16 / chroma_me=1 / trellis=1 / 8x8dct=1 / cqm=0 / deadzone=21,11 / fast_pskip=0 / chroma_qp_offset=-3 / threads=12 / lookahead_threads=2 / sliced_threads=0 / nr=0 / decimate=1 / interlaced=0 / bluray_compat=0 / constrained_intra=0 / bframes=3 / b_pyramid=2 / b_adapt=2 / b_bias=0 / direct=3 / weightb=1 / open_gop=0 / weightp=2 / keyint=240 / keyint_min=24 / scenecut=40 / intra_refresh=0 / rc_lookahead=50 / rc=crf / mbtree=1 / crf=19.0 / qcomp=0.60 / qpmin=0 / qpmax=69 / qpstep=4 / ip_ratio=1.40 / aq=1:1.00
Language                                 : English
Default                                  : Yes
Forced                                   : No

Audio
ID                                       : 2
Format                                   : AC-3
Format/Info                              : Audio Coding 3
Mode extension                           : CM (complete main)
Format settings, Endianness              : Big
Codec ID                                 : A_AC3
Duration                                 : 1h 40mn
Bit rate mode                            : Constant
Bit rate                                 : 384 Kbps
Channel(s)                               : 2 channels
Channel positions                        : Front: L R
Sampling rate                            : 48.0 KHz
Bit depth                                : 16 bits
Compression mode                         : Lossy
Stream size                              : 276 MiB (12%)
Language                                 : German
Default                                  : Yes
Forced                                   : No




Download:
Share Online Share OnlineShare OnlineShare Online
 

Kommentare